war-film.zone

War fórum které se speciálně věnuje FILMŮM, seriálů, a soundtreků .
 
PříjemPortálFAQHledatRegistraceSeznam uživatelůUživatelské skupinyPřihlášeníReklamní agentura AHNE agency byla založena v roce 2002. Nabízím

Share | 
 

 Three Musketeers, The / Tři mušketýři /2011

Goto down 
AutorZpráva
Jack86



Po?et p?ísp?vk? : 110
Join date : 12. 06. 09

PříspěvekPředmět: Three Musketeers, The / Tři mušketýři /2011   Tue Jul 10, 2012 1:24 pm



Dobrodružný / Akční / Romantický
Německo / Francie / Velká Británie / USA, 2011, 110 min

Režie: Paul W.S. Anderson
Hudba: Paul Haslinger
Hrají: Logan Lerman, Matthew MacFadyen, Ray Stevenson, Milla Jovovich, Luke Evans, Mads Mikkelsen, Christoph Waltz, Gabriella Wilde, Orlando Bloom, Juno Temple, James Corden, Til Schweiger, Paul Haslinger, Carsten Norgaard, Susanne Wolff, Freddie Fox, Dexter Fletcher




Postavy čtyř hrdinů bez bázně a hany, kteří se bijí ve jménu francouzského krále a snaží se překazit intriky pletichářského kardinála, zrádného vévody z Buckinghamu a dvojité agentky milady de Winter, snad netřeba představovat. Z původní románové epopeje Alexandra Dumase staršího, četných převyprávění i nespočtu filmových převedení je všechny důkladně známe. Paul W. S. Anderson ve své moderní interpretaci ctí reálie příběhu a své novodobé ztvárnění hodlá přiblížit výpravnosti původního literárního díla

The.Three.Musketeers.2011.BluRay.720p.DTS.x264-CHD

kód:
The.Three.Musketeers.2011.BluRay.720p.DTS.x264-CHD
Format                          : Matroska
File size                        : 5.01 GiB
Duration                        : 1h 50mn
Overall bit rate                : 6 480 Kbps
Encoded date                    : UTC 2012-02-04 13:46:26
Writing application              : mkvmerge v4.4.0 ('Die Wiederkehr') built on Oct 31 2010 21:52:48
Writing library                  : libebml v1.0.0 + libmatroska v1.0.0

Video
ID                              : 1
Format                          : AVC
Format/Info                      : Advanced Video Codec
Format profile                  : High@L4.1
Format settings, CABAC          : Yes
Format settings, ReFrames        : 12 frames
Muxing mode                      : Header stripping
Codec ID                        : V_MPEG4/ISO/AVC
Duration                        : 1h 50mn
Bit rate                        : 4 977 Kbps
Width                            : 1 280 pixels
Height                          : 544 pixels
Display aspect ratio            : 2.35:1
Frame rate                      : 23.976 fps
Color space                      : YUV
Chroma subsampling              : 4:2:0
Bit depth                        : 8 bits
Scan type                        : Progressive
Bits/(Pixel*Frame)              : 0.298
Stream size                      : 3.74 GiB (75%)
Writing library                  : x264 core 120 r2146 bcd41db
Encoding settings                : cabac=1 / ref=12 / deblock=1:-3:-3 / analyse=0x3:0x113 / me=umh / subme=10 / psy=1 / psy_rd=1.05:0.10 / mixed_ref=1 / me_range=32 / chroma_me=1 / trellis=2 / 8x8dct=1 / cqm=2 / deadzone=21,11 / fast_pskip=0 / chroma_qp_offset=-2 / threads=12 / sliced_threads=0 / nr=0 / decimate=1 / interlaced=0 / bluray_compat=0 / constrained_intra=0 / bframes=6 / b_pyramid=2 / b_adapt=2 / b_bias=0 / direct=3 / weightb=1 / open_gop=0 / weightp=2 / keyint=250 / keyint_min=23 / scenecut=40 / intra_refresh=0 / rc_lookahead=40 / rc=2pass / mbtree=1 / bitrate=4977 / ratetol=1.0 / qcomp=0.60 / qpmin=1 / qpmax=63 / qpstep=4 / cplxblur=20.0 / qblur=0.5 / vbv_maxrate=40000 / vbv_bufsize=30000 / nal_hrd=none / ip_ratio=1.40 / aq=1:0.80
Language                        : English

Audio
ID                              : 2
Format                          : DTS
Format/Info                      : Digital Theater Systems
Muxing mode                      : Header stripping
Codec ID                        : A_DTS
Duration                        : 1h 50mn
Bit rate mode                    : Constant
Bit rate                        : 1 510 Kbps
Channel(s)                      : 6 channels
Channel positions                : Front: L C R, Side: L R, LFE
Sampling rate                    : 48.0 KHz
Bit depth                        : 24 bits
Compression mode                : Lossy
Stream size                      : 1.17 GiB (23%)
Title                            : English DTS-HDMA CORE 5.1CH @ 1536 kbps
Language                        : English

Text
ID                              : 3
Format                          : UTF-8
Codec ID                        : S_TEXT/UTF8
Codec ID/Info                    : UTF-8 Plain Text
Language                        : Czech

Sample
kód:

http://sharerapid.biz/stahuj/3736685/thethreemusketeers-2011-720p-eng.mkv?dealer_id=29875

5x900 MB / 1x782.77 MB
kód:

http://sharerapid.biz/stahuj/3281227/thethreemusketeers-2011-720p-eng-part1.rar?dealer_id=29875
http://sharerapid.biz/stahuj/3281238/thethreemusketeers-2011-720p-eng-part2.rar?dealer_id=29875
http://sharerapid.biz/stahuj/3281246/thethreemusketeers-2011-720p-eng-part3.rar?dealer_id=29875
http://sharerapid.biz/stahuj/3281250/thethreemusketeers-2011-720p-eng-part4.rar?dealer_id=29875
http://sharerapid.biz/stahuj/3281255/thethreemusketeers-2011-720p-eng-part5.rar?dealer_id=29875
http://sharerapid.biz/stahuj/3281260/thethreemusketeers-2011-720p-eng-part6.rar?dealer_id=29875

kód:

http://euroshare.eu/file/14385027/thethreemusketeers.2011.720p.eng.part1.rar
http://euroshare.eu/file/14385193/thethreemusketeers.2011.720p.eng.part2.rar
http://euroshare.eu/file/14385319/thethreemusketeers.2011.720p.eng.part3.rar
http://euroshare.eu/file/14385462/thethreemusketeers.2011.720p.eng.part4.rar
http://euroshare.eu/file/14385611/thethreemusketeers.2011.720p.eng.part5.rar
http://euroshare.eu/file/14385735/thethreemusketeers.2011.720p.eng.part6.rar

kód:

http://www.fastshare.cz/1550837/thethreemusketeers.2011.720p.eng.part1.rar
http://www.fastshare.cz/1550840/thethreemusketeers.2011.720p.eng.part2.rar
http://www.fastshare.cz/1550843/thethreemusketeers.2011.720p.eng.part3.rar
http://www.fastshare.cz/1550845/thethreemusketeers.2011.720p.eng.part4.rar
http://www.fastshare.cz/1550848/thethreemusketeers.2011.720p.eng.part5.rar
http://www.fastshare.cz/1550852/thethreemusketeers.2011.720p.eng.part6.rar

kód:

http://download.hellshare.com/thethreemusketeers-2011-720p-eng-part1-rar/8055067/
http://download.hellshare.com/thethreemusketeers-2011-720p-eng-part2-rar/8055081/
http://download.hellshare.com/thethreemusketeers-2011-720p-eng-part3-rar/8055125/
http://download.hellshare.com/thethreemusketeers-2011-720p-eng-part4-rar/8055175/
http://download.hellshare.com/thethreemusketeers-2011-720p-eng-part5-rar/8055218/
http://download.hellshare.com/thethreemusketeers-2011-720p-eng-part6-rar/8055239/

kód:

http://czshare.com/3110239/TheThreeMusketeers.2011.720p.ENG.part1.rar
http://czshare.com/3110245/TheThreeMusketeers.2011.720p.ENG.part2.rar
http://czshare.com/3110258/TheThreeMusketeers.2011.720p.ENG.part3.rar
http://czshare.com/3110272/TheThreeMusketeers.2011.720p.ENG.part4.rar
http://czshare.com/3110280/TheThreeMusketeers.2011.720p.ENG.part5.rar
http://czshare.com/3110294/TheThreeMusketeers.2011.720p.ENG.part6.rar


Upload 3% na oprawu dat

no pass
Návrat nahoru Goto down
Zobrazit informace o autorovi
 
Three Musketeers, The / Tři mušketýři /2011
Návrat nahoru 
Strana 1 z 1

Povolení tohoto fóra:Nemůžete odpovídat na témata v tomto fóru
war-film.zone :: Films :: Adventure (Dobrodružné)-
Přejdi na: